Details for this torrent 

The.Dark.Knight.2008.720p.BRRip.x264-Fastbet99
Type:
Video > HD - Movies
Files:
4
Size:
1.82 GiB (1949112766 Bytes)

Info:
IMDB
Spoken language(s):
English
Tag(s):
The Dark Knight 2008 Fastbet99

Uploaded:
2013-12-26 10:00:31 GMT
By:
Fastbet99 Trusted

Seeders:
29
Leechers:
0
Comments
1  

Info Hash:
 
976F0B3258238DF14CEE59DD3E1252FEFF229093
picture




(Problems with magnets links are fixed by upgrading your torrent client!)
The Dark Knight (2008)

IMDB Info				 : http://www.imdb.com/title/tt0468569

Source					 : MXMG (Thanks)
Complete name                            : The.Dark.Knight.2008.720p.BRRip.x264-Fastbet99.mp4
Format                                   : MPEG-4
Format profile                           : Base Media
Codec ID                                 : isom
File size                                : 1.82 GiB
Duration                                 : 2h 32mn
Overall bit rate mode                    : Variable
Overall bit rate                         : 1 707 Kbps

Video
ID                                       : 1
Format                                   : AVC
Format/Info                              : Advanced Video Codec
Format profile                           : [email protected]
Format settings, CABAC                   : Yes
Format settings, ReFrames                : 4 frames
Codec ID                                 : avc1
Codec ID/Info                            : Advanced Video Coding
Duration                                 : 2h 32mn
Bit rate                                 : 1 286 Kbps
Maximum bit rate                         : 13.3 Mbps
Width                                    : 1 280 pixels
Height                                   : 720 pixels
Display aspect ratio                     : 16:9
Original display aspect ratio            : 16:9
Frame rate mode                          : Constant
Frame rate                               : 23.976 fps
Color space                              : YUV
Chroma subsampling                       : 4:2:0
Bit depth                                : 8 bits
Scan type                                : Progressive
Bits/(Pixel*Frame)                       : 0.058
Stream size                              : 1.37 GiB (75%)
Writing library                          : x264 core 138 r2358 9e941d1

Audio
ID                                       : 2
Format                                   : AAC
Format/Info                              : Advanced Audio Codec
Format profile                           : LC
Codec ID                                 : 40
Duration                                 : 2h 32mn
Bit rate mode                            : Variable
Bit rate                                 : 417 Kbps
Maximum bit rate                         : 535 Kbps
Channel count                            : 2 channels
Original Channel count                   : 6 channels
Channel positions                        : Front: L C R, Side: L R, LFE
Sampling rate                            : 48.0 KHz
Compression mode                         : Lossy
Stream size                              : 454 MiB (24%)
Language                                 : English
Encoder					 : Fastbet99

Screenshots
 
http://lookpic.com/O/i2/1452/UULnwNnD.jpeg

Stairway To heaven - Help People With Keep Seed As Long You Can		

Comments