Details for this torrent 

Jennifer Nettles - That Girl [Music Video] 720p [Sbyky]
Type:
Video > Music videos
Files:
1
Size:
38.89 MiB (40779955 Bytes)
Tag(s):
Jennifer Nettles Sbyky
Uploaded:
2013-12-10 09:21:53 GMT
By:
Sbyky Trusted
Seeders:
1
Leechers:
2
Comments
0  

Info Hash:
 
FD67A88CD8F7028E4D246F1CAD0CDEC6CBDAEA5C




(Problems with magnets links are fixed by upgrading your torrent client!)
[IMG]http://cdn.piczend.com/images/4h0fKxkE/1386638069_thatgirl.jpg[/IMG]

General
Complete name                            : Jennifer Nettles - That Girl [Music Video] 720p [Sbyky].MP4
Format                                   : MPEG-4
Format profile                           : Base Media
Codec ID                                 : isom
File size                                : 38.9 MiB
Duration                                 : 3mn 58s
Overall bit rate mode                    : Variable
Overall bit rate                         : 1 365 Kbps
Encoded date                             : UTC 2013-11-13 13:39:59
Tagged date                              : UTC 2013-11-13 13:39:59

Video
ID                                       : 1
Format                                   : AVC
Format/Info                              : Advanced Video Codec
Format profile                           : [email protected]
Format settings, CABAC                   : Yes
Format settings, ReFrames                : 3 frames
Codec ID                                 : avc1
Codec ID/Info                            : Advanced Video Coding
Duration                                 : 3mn 58s
Duration_LastFrame                       : -41ms
Bit rate                                 : 1 109 Kbps
Width                                    : 1 280 pixels
Height                                   : 720 pixels
Display aspect ratio                     : 16:9
Frame rate mode                          : Constant
Frame rate                               : 23.976 fps
Color space                              : YUV
Chroma subsampling                       : 4:2:0
Bit depth                                : 8 bits
Scan type                                : Progressive
Bits/(Pixel*Frame)                       : 0.050
Stream size                              : 31.6 MiB (81%)
Encoded date                             : UTC 2013-11-13 13:39:59
Tagged date                              : UTC 2013-11-13 13:39:59

Audio
ID                                       : 2
Format                                   : AAC
Format/Info                              : Advanced Audio Codec
Format profile                           : LC
Codec ID                                 : 40
Duration                                 : 3mn 58s
Bit rate mode                            : Variable
Bit rate                                 : 254 Kbps
Channel(s)                               : 2 channels
Channel positions                        : Front: L R
Sampling rate                            : 44.1 KHz
Compression mode                         : Lossy
Delay relative to video                  : 42ms
Stream size                              : 7.22 MiB (19%)
Encoded date                             : UTC 2013-11-13 13:39:50
Tagged date                              : UTC 2013-11-13 13:39:50

Shared By Sbyky
[IMG]http://cdn.piczend.com/images/X3Ag13N3/1379453786_saythanks.gif[/IMG]
[IMG]http://cdn.piczend.com/images/gGqhX2S8/1379453780_keepseeding.gif[/IMG]