Details for this torrent 

Sage The Gemini - Red Nose [Explicit] 1080p [Sbyky]
Type:
Video > Music videos
Files:
1
Size:
150.59 MiB (157904223 Bytes)
Tag(s):
Sage The Gemini Sbyky
Uploaded:
2013-10-12 18:48:45 GMT
By:
Sbyky Trusted
Seeders:
11
Leechers:
1
Comments
0  

Info Hash:
 
1121C5B685563039ABBD9FD38D9595A268AB4770




(Problems with magnets links are fixed by upgrading your torrent client!)
[IMG]http://cdn.piczend.com/images/BboFemKP/1381595721_rednoseexplicit.jpg[/IMG]

General
Complete name                            : Sage The Gemini - Red Nose [Explicit] 1080p [Sbyky].mp4
Format                                   : MPEG-4
Format profile                           : Base Media / Version 2
Codec ID                                 : mp42
File size                                : 151 MiB
Duration                                 : 3mn 47s
Overall bit rate mode                    : Variable
Overall bit rate                         : 5 561 Kbps
Encoded date                             : UTC 2013-06-07 11:56:18
Tagged date                              : UTC 2013-06-07 11:56:18

Video
ID                                       : 1
Format                                   : AVC
Format/Info                              : Advanced Video Codec
Format profile                           : [email protected]
Format settings, CABAC                   : Yes
Format settings, ReFrames                : 1 frame
Codec ID                                 : avc1
Codec ID/Info                            : Advanced Video Coding
Duration                                 : 3mn 47s
Bit rate                                 : 5 367 Kbps
Maximum bit rate                         : 11.9 Mbps
Width                                    : 1 920 pixels
Height                                   : 1 080 pixels
Display aspect ratio                     : 16:9
Frame rate mode                          : Constant
Frame rate                               : 23.976 fps
Color space                              : YUV
Chroma subsampling                       : 4:2:0
Bit depth                                : 8 bits
Scan type                                : Progressive
Bits/(Pixel*Frame)                       : 0.108
Stream size                              : 145 MiB (97%)
Tagged date                              : UTC 2013-06-07 11:56:34

Audio
ID                                       : 2
Format                                   : AAC
Format/Info                              : Advanced Audio Codec
Format profile                           : LC
Codec ID                                 : 40
Duration                                 : 3mn 47s
Bit rate mode                            : Variable
Bit rate                                 : 192 Kbps
Maximum bit rate                         : 202 Kbps
Channel(s)                               : 2 channels
Channel positions                        : Front: L R
Sampling rate                            : 44.1 KHz
Compression mode                         : Lossy
Stream size                              : 5.20 MiB (3%)
Title                                    : IsoMedia File Produced by Google, 5-11-2011
Encoded date                             : UTC 2013-06-07 11:56:29
Tagged date                              : UTC 2013-06-07 11:56:34

Shared By Sbyky
[IMG]http://cdn.piczend.com/images/X3Ag13N3/1379453786_saythanks.gif[/IMG]
[IMG]http://cdn.piczend.com/images/gGqhX2S8/1379453780_keepseeding.gif[/IMG]